#TITLE:God Knows...(Euro Mix Edited);
#SUBTITLE:- Suzumiya Haruhi no Yuuutsu;
#ARTIST:DJ Bouche feat. Hirano Aya;
#TITLETRANSLIT:;
#SUBTITLETRANSLIT:;
#ARTISTTRANSLIT:;
#CREDIT:Tweety3187;
#BANNER:God-logo.jpg;
#BACKGROUND:God-bg.jpg;
#LYRICSPATH:;
#CDTITLE:cdtitle02.png;
#MUSIC:God knows... (DJ Bouche Euro Mix Edited).mp3;
#OFFSET:1.100;
#SAMPLESTART:99.980;
#SAMPLELENGTH:12.000;
#SELECTABLE:YES;
#BPMS:0.000=160.040;
#STOPS:;
#BGCHANGES:;
// cache tags:
#FIRSTBEAT:4.000;
#LASTBEAT:572.000;
#SONGFILENAME:Songs/nhac/[Tweety3187] God Knows...(Euro Mix Edited) -Suzumiya Haruhi no Yuuutsu/Gof Know (EuroMix).sm;
#HASMUSIC:1;
#HASBANNER:1;
#MUSICLENGTH:225.854;
// end cache tags

//---------------dance-single - ----------------
#NOTES:
     dance-single:
     :
     Challenge:
     12:
     1.000,1.000,1.000,0.310,1.000,1757.000,515.000,70.000,0.000,0.000:
0000
0000
0000
0000
,
1001
0000
0000
0000
,
0000
0000
0000
0000
,
0000
0000
0000
0000
,
0000
0000
0000
0000
,
0000
0000
0000
0000
,
0000
0000
0000
0000
,
0000
0000
0000
0000
,
0000
0000
0000
0000
,
1000
0100
0010
0001
0010
0100
1000
0100
0010
0100
1000
0100
0010
0001
0010
0100
,
0010
0001
0010
0100
0010
0100
0010
0100
0010
0001
0010
0100
1000
0001
0010
0100
,
1000
0100
0010
0100
1000
0001
0100
0010
0100
1000
0001
0100
0010
0100
0001
0100
,
0010
1000
0001
0100
1000
0100
1000
0100
0001
0100
0010
0100
0010
0001
0010
0100
,
1000
0100
1000
0100
0010
0001
0010
0001
0010
0001
0010
0100
0001
0010
0100
1000
,
0100
0010
1000
0100
0010
0001
1000
0100
0010
0001
0100
0010
1000
0001
0100
0010
,
1000
0001
0010
0100
1000
0001
0010
0100
0010
0100
0001
0010
0100
1000
0001
1000
,
0001
0100
0010
1000
0001
0010
0100
0001
1000
0010
1000
0100
0010
0001
0010
0100
,
1001
0010
0100
0011
1000
0100
1010
0001
1000
0110
0001
0100
1001
0010
1001
0010
,
1001
0100
1000
0011
1000
0001
0110
0001
0100
1010
0001
0100
0011
1000
0011
1000
,
0011
0100
0001
1010
0100
0001
0110
1000
0010
1001
0100
0001
1010
0001
0110
1000
,
0100
0000
0011
0000
0110
0000
1010
0100
0010
0000
2001
0000
0001
0010
3001
0010
,
1001
0100
0001
1010
0100
1000
0011
1000
0010
0101
1000
0001
0110
0001
0110
0001
,
0110
0001
0100
1001
0100
1000
0011
1000
0010
0101
0010
0001
1010
0001
1010
0001
,
1010
0001
1000
0110
0001
0010
1100
0010
1000
0011
1000
0010
0101
1000
0101
1000
,
0010
0000
1010
0000
1100
0000
1100
0010
0100
0000
0012
0000
1000
0010
0103
0001
,
1010
0001
1000
0110
0001
0100
1001
0010
1000
0101
0010
0001
1100
0001
1100
0001
,
1100
0010
1000
0011
1000
0010
0101
1000
0001
0110
0001
0010
1001
0100
1001
0100
,
1001
0010
1000
0011
1000
0001
0110
0001
0010
1100
0001
1000
0110
0001
1010
0100
,
0010
0000
0101
0000
0011
0000
1100
0010
0100
0000
0021
0000
0001
1000
0031
0100
,
1001
0010
0100
1001
0010
1000
0110
0001
1000
0110
0001
0100
0011
1000
0011
1000
,
0011
0100
0010
1100
0001
0010
1001
0100
0001
0110
1000
0001
1010
0001
1010
0001
,
1000
0100
0010
0001
1000
0100
0010
0001
1000
0100
0010
0001
1000
0100
1001
0010
,
0100
0010
1001
0100
1001
0010
1001
0100
0010
0100
1001
0010
0100
0010
0100
0010
,
1001
0000
0100
1000
0011
0000
0110
2010
0001
0000
3010
0100
0001
0000
0010
1000
,
0100
0000
0100
0010
0001
0000
1010
0001
1100
0000
1010
0100
0011
0000
0011
1000
,
0201
0000
0310
0001
1010
0000
0011
0102
0010
0000
0013
0100
1000
0000
0100
0010
,
0100
0000
0001
1000
0001
0000
0100
0010
1000
0000
0100
0010
0100
0000
0010
0100
,
1001
0000
0100
1000
0011
0000
0110
2010
0001
0000
3100
0010
0100
0000
0001
1000
,
0001
0000
0100
0010
0001
0000
1010
0100
0011
0000
0101
0001
1010
0000
1001
0100
,
0011
0000
1100
2100
3000
0011
0012
0100
1000
0000
0100
0010
0100
0000
0010
1003
,
0110
1000
0001
0010
1100
0001
1000
0100
0011
1000
0011
0100
1010
1010
0101
0101
,
0101
0010
0100
0001
1010
0000
0110
1200
0001
1000
0301
1000
0110
0000
0001
0010
,
0100
1000
0100
0010
1100
0000
0101
1000
0110
0001
1010
0010
0101
0000
1001
0010
,
0101
1000
0100
0001
0110
0000
1001
2001
0100
0010
3100
0001
1010
0000
0100
0010
,
0001
1000
0100
0010
0101
0000
0010
1000
0010
1000
0100
0010
1100
0000
0100
1000
,
0011
0100
0010
1000
0101
0000
0110
2100
0001
0010
3001
0010
1100
0000
0010
0100
,
0010
0100
1000
0010
0101
0000
1010
0100
1001
0010
1100
0001
0110
0000
1001
0010
,
0101
0000
0101
0102
0003
0000
1010
2010
0100
0010
0001
0010
0100
0010
0001
0010
,
3001
0100
1000
0010
1001
0100
1000
0010
0101
0010
1000
0001
0110
1000
0100
0010
,
1001
0000
0010
1100
1001
0000
0100
0000
1010
0000
0001
0110
1001
0000
0100
0000
,
0011
0000
0100
1010
1100
0000
0010
0000
1100
0000
0001
1010
0011
0000
0100
0000
,
1001
0000
0010
0011
0011
0000
0100
0000
1010
0000
0001
1100
1010
0000
0100
0000
,
1001
0000
0100
0011
1001
0000
0010
0000
1100
0000
0001
1100
1100
0000
0001
0000
,
1001
0010
1100
0001
0110
0000
0011
0012
0100
1000
0100
0013
1100
0000
0110
1000
,
0101
0010
1100
0001
0110
1000
0101
0101
0010
0000
1001
0000
1001
0000
0010
0000
,
0101
0000
1000
0000
0011
0000
0012
1000
0010
1000
0013
1000
0011
1100
0011
1100
,
0011
0000
1010
0000
0110
0110
0000
0102
,
0013
0000
1010
0001
1100
0001
0110
1001
0100
1000
0012
0100
0010
0103
2010
0001
,
0010
3100
0011
1000
0101
1000
0011
1001
0100
0001
1020
0001
0100
0030
0210
0001
,
0010
0300
0011
1000
0101
1000
0101
0010
0010
0000
1010
0001
1100
0010
1001
0100
,
0010
0000
0101
1000
1000
0000
0110
0001
0001
0000
1010
0001
0110
0001
1100
0010
,
2010
0100
0010
0001
3010
0100
0012
1000
0100
0010
0103
1000
0100
0000
0101
1000
,
0110
0001
0100
0001
1010
0100
1000
0100
0011
0100
0010
0001
1100
0010
0100
0010
,
1002
0010
1000
0100
1000
0010
1003
0100
1000
0100
1010
0001
1010
0100
0021
1000
,
0100
0030
1000
0000
0101
0000
1000
0110
0110
0001
1010
0100
0010
0000
0021
0000
,
1030
0000
0101
1000
0110
0010
1001
0101
0010
0100
1020
0001
0100
0031
2100
0010
,
0001
3100
0011
1000
0101
0010
1001
0110
1000
0100
0012
1000
0100
0103
1020
0001
,
0001
0030
1100
0001
1100
0010
0011
0100
0100
0000
1010
0001
1010
0100
1001
0010
,
0010
0000
0011
1000
0100
0000
0101
0010
1000
0000
0110
0001
1010
0001
0110
1000
,
0021
0100
1000
0100
1030
0010
0201
1000
0010
0001
0310
0001
0010
1000
0101
0010
,
1001
0010
0100
1000
0011
1000
0100
0010
0101
0010
0100
0010
1001
0100
0010
0001
,
2100
0001
0010
0001
3010
0001
0210
0001
0010
0001
0010
0001
0010
0001
0310
0001
,
1010
0100
0010
0001
1010
0100
1000
0100
0011
1000
0001
0110
0001
0010
1100
1000
,
0012
1000
0010
1000
0010
1000
0010
1000
0010
1000
0013
1000
0010
0001
2010
0001
,
0100
0001
0100
0001
0100
0001
0100
0001
3100
0001
0110
1100
0110
1001
0011
0110
,
1000
0000
0000
0000
,
0001
0000
0000
0000
,
0100
0000
0000
0010
,
0001
0000
0000
0000
,
1000
0000
0000
0010
,
0100
0000
0000
0001
0000
0000
0010
0000
,
0010
0000
0100
0000
,
0010
0000
1000
0100
,
1000
0000
0000
0010
0000
0000
0001
0000
,
0010
0000
0000
0100
0000
0000
0001
0000
,
0010
0000
0000
1000
0000
0000
0100
0000
,
0100
0001
0010
0100
0000
0100
0000
0010
,
1000
0100
0010
0001
0000
0000
0000
0000
,
0001
0010
0100
1000
0000
0000
0001
0000
,
0001
0000
0000
0000
,
1010
0000
0000
0000
0000
0000
0000
1001
,
0101
1000
0010
0100
1010
0001
0010
0001
1100
0010
0100
1000
0011
1000
0010
1000
,
0101
1000
0100
0001
0110
1000
0001
0100
1010
0001
0010
0100
1001
0010
1000
0001
,
0110
1000
0100
1000
0011
0100
0010
0100
1001
0100
0001
0100
1010
0001
0010
0001
,
1100
0010
0100
0010
1001
0100
0010
0001
1010
0100
0001
0010
1100
0010
0100
1000
,
0011
1000
0010
1000
0101
1000
0001
1000
0110
0001
0010
0100
1001
0010
0100
0010
,
1001
0010
0100
0001
0110
1000
0001
1000
0110
0001
0010
0100
1001
0010
0100
1000
,
0110
0001
0100
1000
0011
0100
1000
0010
1001
0100
0010
0001
1100
0010
0100
0010
,
0001
0010
0100
1000
0001
0010
0100
1000
0001
0010
0100
1000
0001
0010
0100
1000
,
0011
0100
0010
0001
1010
0100
0010
0001
1100
0010
0100
0010
1001
0100
1000
0100
,
0011
1000
0010
1000
0101
0010
1000
0001
0110
0001
0010
0100
1001
0010
0001
1000
,
0110
0001
0100
0010
1001
0010
0100
1000
0110
0001
1000
0100
0011
1000
0100
0001
,
1010
0100
0010
1000
0101
0010
1000
0001
0110
0001
0010
0001
1100
0010
0001
0100
,
2001
0100
0001
0100
0001
0100
0001
0100
0001
0100
0001
0100
3001
0100
0001
0100
,
1010
0001
0010
0100
1010
0001
0010
0001
1100
0010
0100
1000
0011
1000
0010
1000
,
0102
1000
0010
1000
0010
1000
0010
1000
0013
1000
0110
1000
0011
1000
0102
0010
,
0100
0010
0100
0010
0100
0010
0100
0010
0103
0010
1000
0100
0011
0100
0010
1000
,
0101
0000
0020
0000
2030
3200
0300
1001
,
1001
0000
0000
0000
0200
0000
0000
0000
0320
0000
0032
0000
0103
0000
2001
0010
,
3100
0000
0110
1000
0011
1000
0101
1010
0001
0010
2100
0001
0100
3001
0120
1000
,
0100
0031
1100
0010
1001
0010
1100
0011
0100
1000
0210
1000
0001
0300
0102
1000
,
0100
0003
1100
0010
1001
0010
1001
0100
0100
0000
0110
1000
0011
0100
1010
0001
,
0100
0000
1001
0010
0010
0000
0101
1000
1000
0000
0110
1000
0101
1000
0011
0100
,
0120
0001
0100
0001
0130
0001
2100
0010
0001
0100
3001
0010
0001
0000
1001
0010
,
0101
1000
0001
1000
0110
0001
0010
0001
1100
0001
0100
1000
0011
0100
0001
0100
,
2010
0100
0010
0001
0010
0100
3010
0001
0010
0001
0110
1000
0110
0001
1200
0010
,
0001
0300
0010
0000
1001
0000
0010
0101
0101
1000
0110
0001
0100
0000
1200
0000
,
0310
0000
1001
0010
0101
0100
1010
1001
0100
0001
0210
1000
0001
1300
0021
0100
,
1000
0031
1100
0010
1001
0100
1010
0101
0010
0001
2100
0010
0001
3001
0210
1000
,
1000
0300
0011
1000
0011
0100
1100
0001
0001
0000
0110
1000
0110
0001
1010
0100
,
0100
0000
1100
0010
0001
0000
1001
0100
0010
0000
0101
1000
0110
1000
0101
0010
,
1200
0001
0010
0001
0310
0100
1002
0010
0100
1000
0103
1000
0100
0010
1001
0100
,
1010
0100
0001
0010
1100
0010
0001
0100
1001
0100
0001
0100
1010
0001
0100
1000
,
0021
1000
0001
1000
0031
1000
0102
1000
0100
1000
0100
1000
0100
1000
0103
1000
,
0110
0001
0100
1000
0110
0001
0010
0001
1100
0010
1000
0101
1000
0100
0011
0010
,
2100
0010
0001
0010
0001
0010
0001
0010
0001
0010
3001
0010
0001
1000
0120
0001
,
1000
0001
1000
0001
1000
0001
1000
0001
1030
0001
1100
1100
0011
0011
1001
1001
,
1001
0010
0100
0011
1000
0100
1010
0001
1000
0110
0001
0100
1001
0010
1001
0010
,
1001
0100
1000
0011
1000
0001
0110
0001
0100
1010
0001
0100
0011
1000
0011
1000
,
0011
0100
0001
1010
0100
0001
0110
1000
0010
1001
0100
0001
1010
0001
0110
1000
,
0100
0000
0011
0000
0110
0000
1010
0100
0010
0000
2001
0000
0001
0010
3001
0010
,
1001
0100
0001
1010
0100
1000
0011
1000
0010
0101
1000
0001
0110
0001
0110
0001
,
0110
0001
0100
1001
0100
1000
0011
1000
0010
0101
0010
0001
1010
0001
1010
0001
,
1010
0001
1000
0110
0001
0010
1100
0010
1000
0011
1000
0010
0101
1000
0101
1000
,
0010
0000
1010
0000
1100
0000
1100
0010
0100
0000
0012
0000
1000
0010
0103
0001
,
1010
0001
1000
0110
0001
0100
1001
0010
1000
0101
0010
0001
1100
0001
1100
0001
,
1100
0010
1000
0011
1000
0010
0101
1000
0001
0110
0001
0010
1001
0100
1001
0100
,
1001
0010
1000
0011
1000
0001
0110
0001
0010
1100
0001
1000
0110
0001
1010
0100
,
0010
0000
0101
0000
0011
0000
1100
0010
0100
0000
0021
0000
0001
1000
0031
0100
,
1001
0010
0100
1001
0010
1000
0110
0001
1000
0110
0001
0100
0011
1000
0011
1000
,
0011
0100
0010
1100
0011
0100
0010
0001
1010
0100
1000
0011
1000
0001
0110
0001
,
2100
0001
0100
0001
0100
0001
0100
0001
0100
0001
0100
0001
3100
0010
0102
1000
,
0010
1000
0010
1000
0010
1000
0010
1000
0010
1000
0010
1003
0010
0100
0010
0001
,
1100
0000
0000
0000
;

//---------------dance-single - ----------------
#NOTES:
     dance-single:
     :
     Medium:
     6:
     0.434,0.507,0.306,0.159,0.093,581.000,69.000,36.000,0.000,0.000:
0000
0000
0000
0000
,
0000
0000
0000
0000
,
0000
0000
0000
0000
,
0000
0000
0000
0000
,
0000
0000
0000
0000
,
0000
0000
0000
0000
,
0000
0000
0000
0000
,
0000
0000
0000
0000
,
0000
0000
0000
0000
,
1000
1000
1000
1000
,
1000
1000
1000
1000
,
0001
0001
0001
0001
,
0001
0001
0001
0001
,
0100
0100
0100
0100
,
0100
0100
0100
0100
,
0010
0010
0010
0010
,
0010
0010
0010
0010
,
1000
0000
0000
0001
0000
0000
0010
0000
0000
0001
0000
0000
0100
0000
0010
0000
,
1000
0000
0000
0010
0000
0000
0100
0000
0000
1000
0000
0000
0100
0000
0010
0000
,
0001
0000
0000
1000
0000
0000
0010
0000
0000
0100
0000
0000
1000
0000
1000
0000
,
1001
0110
1001
0110
,
0001
0000
0000
0100
0000
0000
0010
0000
0000
1000
0000
0000
0100
0000
1000
0000
,
0001
0000
0000
0100
0000
0000
0010
0000
0000
0001
0000
0000
1000
0000
1000
0000
,
1000
0000
0000
0100
0000
0000
0010
0000
0000
0100
0000
0000
0010
0000
0001
0000
,
1100
0011
1100
0011
,
0010
0000
0000
0100
0000
0000
1000
0000
0000
1000
0000
0000
0001
0000
0001
0000
,
0001
0000
0000
0100
0000
0000
0010
0000
0000
1000
0000
0000
0100
0000
0010
0000
,
0100
0000
0000
1000
0000
0000
0001
0000
0000
0100
0000
0000
0010
0000
0010
0000
,
0110
1001
0110
1001
,
1000
0000
0000
1000
0000
0000
1000
0000
0000
0001
0000
0000
0010
0000
0010
0000
,
0010
0000
0000
0100
0000
0000
0100
0000
0000
0100
0000
0000
0001
0000
1000
0000
,
0001
0100
1000
0010
,
0100
0001
1000
0100
,
0001
0000
1000
0000
0010
0000
1000
1000
,
1000
0000
0010
0000
0100
0000
0001
0001
,
0001
0000
0010
0000
1000
0000
0100
0100
,
0100
0000
0001
0000
1000
0000
0010
0010
,
0010
0000
0100
0000
0001
0000
0001
0001
,
0001
0000
0100
0000
0010
0000
1000
1000
,
1000
0000
0010
0000
0100
0000
0100
0100
,
1000
1000
1000
1000
0001
0001
0001
0001
,
1000
0000
0010
0000
0100
0000
0001
0010
,
0001
0000
1000
0000
0010
0000
1000
0100
,
1000
0000
0010
0000
0100
0000
0010
0100
,
0010
0000
0001
0000
1000
0000
0001
0010
,
0100
0000
0001
0000
1000
0000
0010
1000
,
0010
0000
0100
0000
0001
0000
0100
0010
,
0100
0000
0001
0000
1000
0000
0100
0010
,
0001
0001
1000
1000
0010
0010
0100
0100
,
1000
0101
0010
1100
,
0001
1010
0100
1001
,
0010
0011
0100
1001
,
0010
1100
1000
1100
,
0001
0101
0010
0011
,
0100
0110
0001
0110
,
1000
0110
1001
0110
,
2002
0000
3003
0000
,
1000
0100
1000
0000
0001
0010
0001
0000
,
0100
0100
0100
0000
0010
0010
0010
0000
,
0001
0010
0001
0000
0100
0010
0100
0000
,
1000
1000
1000
0000
0010
1000
0010
0000
,
0100
0100
0100
0000
0001
0010
0001
0000
,
0010
0010
0010
0000
0100
0001
0100
0000
,
0001
0010
0001
0000
1000
1000
1000
0000
,
0010
1000
0010
0000
0100
0100
0100
0000
,
0001
0001
0001
0000
0010
0010
0010
0000
,
0100
0010
0100
0000
0001
1000
0010
0000
,
0100
0001
0100
0000
0010
1000
0010
0000
,
0100
0100
0100
0000
0001
1000
0001
0000
,
0102
0100
0100
0103
,
0110
1001
0110
1001
,
2010
0010
0010
3010
,
1002
1000
1000
1003
,
0220
0000
0000
0330
,
2002
0000
0000
3003
,
2000
0000
0000
0000
,
3002
0000
0000
0000
,
0203
0000
0000
0000
,
0320
0000
0000
0000
,
2030
0000
0000
0000
,
3002
0000
0000
0000
,
2003
0000
0000
0000
,
3020
0000
0000
0000
,
0230
0000
0000
0000
,
0302
0000
0000
0000
,
0203
0000
0000
0000
,
0302
0000
0000
0000
,
2003
0000
0000
0000
,
3020
0000
0000
0000
,
2030
0000
0000
0000
,
3002
0000
0000
0003
,
0001
0100
0010
1000
,
0001
0100
0010
1000
,
0001
0100
0010
0001
,
0010
0100
1000
0001
,
1000
0010
1000
0010
,
1000
0100
0001
0010
,
0100
0001
1000
0010
,
0100
0001
0110
1001
,
0110
0100
1000
0010
,
0100
0001
1000
0010
,
0100
0001
0010
0001
,
0100
1000
0010
0100
,
2010
0001
0010
3001
,
0100
0001
1000
0010
,
0102
1000
0100
1003
,
0210
0010
0010
0310
,
1001
0000
0000
0110
,
1001
0000
0000
0000
,
0001
1000
0010
0000
0001
0100
1000
0000
,
0100
1000
0001
0000
0001
0100
0010
0000
,
1000
0010
0100
0000
0100
1000
0001
0000
,
0001
0100
1000
0000
0100
1000
0001
0000
,
0001
0010
0100
0000
1000
0001
0100
0000
,
0001
0010
1000
0000
0100
1000
0001
0000
,
0001
0100
1000
0000
0100
0010
0001
0000
,
0001
1000
0010
0000
1000
0010
0100
0000
,
1000
0100
0001
0000
0010
1000
1000
0000
,
1000
0001
0001
0000
0010
0100
0100
0000
,
0001
1000
0010
0000
1000
0010
0100
0000
,
0100
1000
0010
0000
1000
0001
0100
0000
,
0102
0100
0100
0103
,
1001
0110
1001
0110
,
0201
0001
0001
0301
,
0011
1000
0010
0100
,
2020
0000
0000
0000
0000
0000
0000
3030
,
0202
0000
0000
0000
0000
0000
0000
0303
,
1000
0000
0000
0001
0000
0000
0010
0000
0000
0001
0000
0000
0100
0000
0010
0000
,
1000
0000
0000
0010
0000
0000
0100
0000
0000
1000
0000
0000
0100
0000
0010
0000
,
0001
0000
0000
1000
0000
0000
0010
0000
0000
0100
0000
0000
1000
0000
1000
0000
,
1001
0110
1001
0110
,
0001
0000
0000
0100
0000
0000
0010
0000
0000
1000
0000
0000
0100
0000
1000
0000
,
0001
0000
0000
0100
0000
0000
0010
0000
0000
0001
0000
0000
1000
0000
1000
0000
,
1000
0000
0000
0100
0000
0000
0010
0000
0000
0100
0000
0000
0010
0000
0001
0000
,
1100
0011
1100
0011
,
0010
0000
0000
0100
0000
0000
1000
0000
0000
1000
0000
0000
0001
0000
0001
0000
,
0001
0000
0000
0100
0000
0000
0010
0000
0000
1000
0000
0000
0100
0000
0010
0000
,
0100
0000
0000
1000
0000
0000
0001
0000
0000
0100
0000
0000
0010
0000
0010
0000
,
0110
1001
0110
1001
,
1000
0000
0000
1000
0000
0000
1000
0000
0000
0001
0000
0000
0010
0000
0010
0000
,
0010
1000
0010
0001
,
2010
0010
0010
3010
,
0102
0100
0100
0100
,
0103
0000
0000
0000
;

//---------------dance-single - Copied from----------------
#NOTES:
     dance-single:
     Copied from:
     Hard:
     10:
     1.000,1.000,1.000,0.372,1.000,1509.000,355.000,84.000,0.000,0.000:
0000
0000
0000
0000
,
1001
0000
0000
0000
,
0000
0000
0000
0000
,
0000
0000
0000
0000
,
0000
0000
0000
0000
,
0000
0000
0000
0000
,
0000
0000
0000
0000
,
0000
0000
0000
0000
,
0000
0000
0000
0000
,
1000
0100
0010
0001
0010
0100
1000
0100
0010
0100
1000
0100
0010
0001
0010
0100
,
0010
0001
0010
0100
0010
0100
0010
0100
0010
0001
0010
0100
1000
0001
0010
0100
,
1000
0100
0010
0100
1000
0001
0100
0010
0100
1000
0001
0100
0010
0100
0001
0100
,
0010
1000
0001
0100
1000
0100
1000
0100
0001
0100
0010
0100
0010
0001
0010
0100
,
1000
0100
1000
0100
0010
0001
0010
0001
0010
0001
0010
0100
0001
0010
0100
1000
,
0100
0010
1000
0100
0010
0001
1000
0100
0010
0001
0100
0010
1000
0001
0100
0010
,
1000
0001
0010
0100
1000
0001
0010
0100
0010
0100
0001
0010
0100
1000
0001
1000
,
0001
0100
0010
1000
0001
0010
0100
0001
1000
0010
1000
0100
0010
0001
0010
0100
,
0001
0010
0100
0001
1010
0100
0010
0001
1000
0100
0001
0100
1100
0010
0001
0010
,
1000
0100
1000
0001
0110
0001
0100
0001
1000
0010
0001
0100
1001
0010
0001
1000
,
0001
0100
0001
1000
0110
0001
0100
1000
0010
1000
0100
0001
1010
0001
0010
1000
,
0110
0000
0011
0000
0110
0000
1010
0000
0010
0000
2001
0000
0001
0000
3001
0010
,
0001
0100
0001
0010
0101
1000
0001
1000
0010
0100
1000
0001
0110
0001
1000
0001
,
0100
0001
0100
1000
0101
1000
0001
1000
0010
0100
0010
0001
1100
0001
0010
0001
,
1000
0001
1000
0010
0101
0010
1000
0010
0100
0001
1000
0010
0101
1000
0001
1000
,
0110
0000
1010
0000
1100
0000
1100
0000
0100
0000
0012
0000
1000
0000
0103
0001
,
0010
0001
1000
0100
0011
0100
1000
0010
0100
0001
0100
0001
1100
0001
0010
0001
,
1000
0010
1000
0001
1100
0010
0001
1000
0001
0100
0001
0010
1001
0100
0001
0100
,
1000
0010
0100
0001
1010
0001
0100
0001
0010
1000
0001
1000
0110
0001
1010
0100
,
0011
0000
0101
0000
0011
0000
1100
0000
0100
0000
0021
0000
0001
0000
0031
0100
,
1000
0010
0100
0001
0110
1000
0010
0001
1000
0100
0001
0100
0011
1000
0000
1000
,
0001
0100
0010
1000
0101
0010
0001
0100
0010
0001
1000
0001
0110
0001
1000
0001
,
1000
0100
0010
0001
1000
0100
0010
0001
1000
0100
0010
0001
1000
0100
0001
0010
,
0100
0010
0001
0100
0001
0010
1000
0100
0010
0100
1001
0010
0100
0010
0100
0010
,
1001
0000
0100
0000
0011
0000
0110
2010
0001
0000
3010
0000
0001
0000
0010
0000
,
0100
1000
0001
1010
1100
1010
0011
0011
,
0201
0000
0310
0000
1010
0000
0011
0102
0010
0000
0013
0000
1000
0000
0010
0000
,
0100
0100
0001
0001
1000
1000
0010
0010
,
1001
0000
0100
0000
0011
0000
0110
2010
0001
0000
3100
0000
0100
0000
0010
0000
,
0001
0100
0001
1010
0011
0101
1010
1001
,
0011
0000
0000
2100
3000
0000
0012
0000
1000
0000
0100
0000
0100
0000
0010
0003
,
0100
1000
0001
0010
0100
0001
1000
0100
0001
1000
0001
0100
1000
0010
0001
1000
,
0101
0000
0100
0000
1010
0000
0110
1200
0001
0000
0301
0000
0110
0000
0001
0010
,
0100
0000
0100
0000
1100
0000
0101
1000
0110
0000
1010
0000
0101
0000
1001
0010
,
0101
0000
0100
0000
0110
0000
1001
2001
0100
0000
3100
0000
1010
0000
0100
0010
,
0001
0000
1000
0000
0101
0000
0010
1000
0010
0000
0100
0000
1100
0000
0100
1000
,
0011
0000
0010
0000
0101
0000
0110
2100
0001
0000
3001
0000
1100
0000
0010
0100
,
0010
0000
1000
0000
0101
0000
1010
0100
1001
0000
1100
0000
0110
0000
1001
0010
,
0101
0000
0000
0102
0003
0000
2010
0100
0010
0001
0001
0010
0100
0010
0001
0010
,
3001
0100
1000
0010
1001
0100
1000
0010
0001
0010
1000
0001
0010
1000
0100
0010
,
1001
0000
0000
1100
1001
0000
0100
0000
1010
0000
0000
0110
1001
0000
0100
0000
,
0011
0000
0000
1010
1100
0000
0010
0000
1100
0000
0000
1010
0011
0000
0100
0000
,
1001
0000
0000
0011
0011
0000
0100
0000
1010
0000
0000
1100
1010
0000
0100
0000
,
1001
0000
0000
0011
1001
0000
0010
0000
1100
0000
0000
1100
1100
0000
0001
0010
,
1001
0000
1100
0000
0110
0000
0011
0012
0100
0000
0100
0003
1100
0000
0110
1000
,
0101
0000
1100
0000
0110
0000
0101
0101
0010
0000
1001
0000
1001
0000
0010
0000
,
0101
0000
1000
0000
0011
0000
0012
1000
0010
1000
0013
1000
0001
0010
0100
1000
,
0011
0000
1010
0000
0110
0110
0000
0102
,
0013
0000
1010
0000
1100
0000
0110
0011
1000
0000
0012
0000
0010
0003
2010
0001
,
0010
3000
0011
0000
0101
0000
0011
1001
0100
0000
1020
0000
0100
0030
0210
1000
,
0010
0300
0011
0000
0101
0000
0101
1000
0010
0000
1010
0000
1100
0000
1001
0100
,
0010
0000
0101
0000
1000
0000
0110
1000
0001
0000
1010
0000
0110
0000
1100
0001
,
2010
0000
0010
3000
0110
0000
0012
1000
0100
0000
0013
0000
0100
0000
0101
1000
,
0110
0000
0100
0000
1010
0000
1000
0100
0011
0000
0010
0000
1100
0000
0100
0010
,
1002
0000
1000
0000
0100
0000
0013
0100
1000
0000
1010
0000
1010
0000
0021
1000
,
0100
0030
1000
0000
0101
0000
1000
0110
0110
0000
1010
0000
0010
0000
0021
0100
,
1030
0000
0101
0000
0110
0000
1001
0101
0010
0000
1020
0000
0100
0030
2100
0010
,
0001
3000
0011
0000
0101
0000
1001
0110
1000
0000
0012
0000
0100
0003
1020
0100
,
0001
0030
1100
0000
1100
0000
0011
1000
0100
0000
1010
0000
1010
0000
1001
0100
,
0010
0000
0011
0000
0100
0000
0101
0010
1000
0000
0110
0000
1010
0000
0110
1000
,
0021
0000
1000
0000
1030
0000
0201
1000
0010
0000
1300
0000
0010
0000
0101
0010
,
1001
0000
0100
0000
0011
0000
1000
0010
0101
0000
0100
0000
1001
0000
0010
0001
,
2100
0000
0010
0000
3001
0000
0210
0001
1000
0000
0001
0000
1000
0000
0310
0001
,
1010
0000
0010
0000
1010
0000
1000
0100
0011
0000
0001
0110
0001
0000
1010
0100
,
0012
1000
0010
1000
0010
1000
0010
1000
0010
1000
0013
1000
0010
0000
2010
0000
,
0100
0001
0100
0001
0100
0001
0100
0001
3100
0001
0010
1000
0100
1000
0001
0010
,
2000
0000
3000
0000
,
0002
0000
0003
0000
,
0200
0000
0300
0010
,
0002
0000
0003
0000
,
2000
0000
3000
0010
,
0100
0000
0000
0001
0000
0000
0010
0000
,
0010
0000
0100
0000
,
0010
0000
1000
0100
,
1000
0000
0000
0010
0000
0000
0001
0000
,
0010
0000
0000
0100
0000
0000
0001
0000
,
0010
0000
0000
1000
0000
0000
0100
0000
,
0100
0001
0010
0100
0000
0100
0000
0010
,
1000
0100
0010
0001
0000
0000
0000
0000
,
0001
0010
0100
1000
0000
0000
0001
0000
,
0002
0000
0003
0000
,
2020
0000
0000
0000
3030
0000
0000
1001
,
0001
1000
0010
0100
1000
0001
0010
0001
1000
0010
0100
1000
0001
1000
0010
1000
,
0001
1000
0100
0001
0100
1000
0001
0100
0010
0001
0010
0100
0001
0010
1000
0001
,
0010
1000
0100
1000
0010
0100
0010
0100
0001
0100
0001
0100
1000
0001
0010
0001
,
1000
0010
0100
0010
1000
0100
0010
0001
0010
0100
0001
0010
1000
0010
0100
1000
,
0010
1000
0010
1000
0001
1000
0001
1000
0100
0001
0010
0100
0001
0010
0100
0010
,
1000
0010
0100
0001
0100
1000
0001
1000
0100
0001
0010
0100
0001
0010
0100
1000
,
0100
0001
0100
1000
0010
0100
1000
0010
0001
0100
0010
0001
1000
0010
0100
0010
,
0001
0010
0100
1000
0001
0010
0100
1000
0001
0010
0100
1000
0001
0010
0100
1000
,
0010
0100
0010
0001
0010
0100
0010
0001
1000
0010
0100
0010
1000
0100
1000
0100
,
0001
1000
0010
1000
0100
0010
1000
0001
0010
0001
0010
0100
1000
0010
0001
1000
,
0010
0001
0100
0010
1000
0010
0100
1000
0100
0001
1000
0100
0010
1000
0100
0001
,
0010
0100
0010
1000
0001
0010
1000
0001
0010
0001
0010
0001
1000
0010
0001
0100
,
2001
0100
0001
0100
0001
0100
0001
0100
0001
0100
0001
0100
3001
0100
0001
0100
,
1010
0000
0010
0000
0202
0000
0000
0303
2020
0000
0000
3030
2200
0000
0000
3300
,
0102
1000
0010
1000
0010
1000
0010
1000
0013
0000
0110
0000
0011
0000
0102
0000
,
0100
0010
0100
0010
0100
0010
0100
0010
0103
0010
1000
0100
0001
0100
0010
1000
,
0101
0000
0020
0000
2030
3200
0300
1001
,
1001
0000
0000
0000
0200
0000
0000
0000
0320
0000
0032
0000
0103
0000
2001
0010
,
3100
0000
0110
0000
0011
0000
0101
1010
0001
0000
2100
0000
0100
3000
0120
1000
,
0100
0030
1100
0000
1001
0000
1100
0011
0100
0000
0210
0000
0001
0300
0102
1000
,
0100
0003
1100
0000
1001
0000
1001
0010
0100
0000
0110
0000
0011
0000
1010
0001
,
0100
0000
1001
0000
0010
0000
0101
0010
1000
0000
0110
0000
0101
0000
0011
1000
,
0120
0000
0100
0000
0031
0000
2100
0010
0001
0000
3001
0000
0100
0000
1001
0010
,
0101
0000
0001
0000
0110
0000
0010
0001
1100
0000
0100
0000
0011
0000
0001
0100
,
2010
0000
0010
0000
0100
0000
3010
0001
0010
0000
0110
0000
0110
0000
1200
0010
,
0001
0300
0010
0000
1001
0000
0010
0101
0101
0000
0110
0000
0100
0000
1200
0001
,
0310
0000
1001
0000
0101
0000
1010
1001
0100
0000
0210
0000
0001
0300
0021
0100
,
1000
0030
1100
0000
1001
0000
1010
0101
0010
0000
2100
0000
0001
3000
0210
1000
,
1000
0300
0011
0000
0011
0000
1100
0010
0001
0000
0110
0000
0110
0000
1010
0001
,
0100
0000
1100
0000
0001
0000
1001
0100
0010
0000
0101
0000
0110
0000
0101
0010
,
1200
0000
0010
0000
0310
0000
1002
0010
0100
0000
1003
0000
0100
0000
1001
0100
,
1010
0000
0001
0000
1100
0000
0001
0100
1001
0000
0001
0000
1010
0000
0100
1000
,
0021
0000
0001
0000
0031
0000
0102
1000
0100
1000
0100
1000
0100
1000
0103
1000
,
0101
0000
0010
0000
1100
0000
0100
1000
0011
0000
1000
0101
1000
0000
0101
0010
,
2100
0010
0001
0010
0001
0010
0001
0010
0001
0010
0001
0010
3001
0000
0120
0000
,
1000
0001
1000
0001
1000
0001
1000
0001
1030
0001
0100
1000
0001
0010
0001
1000
,
0011
0010
0100
0001
1010
0100
0010
0001
1000
0100
0001
0100
1001
0010
0001
0010
,
1000
0100
1000
0001
1010
0001
0100
0001
0100
1000
0001
0100
0011
1000
0010
1000
,
0001
0100
0001
1000
0110
0001
0100
1000
0010
0001
0100
0001
1010
0001
0100
1000
,
0100
0000
0011
0000
0110
0000
1010
0000
0010
0000
2001
0000
0001
0000
3001
0010
,
0001
0100
0001
1000
0110
1000
0001
1000
0010
0100
1000
0001
0110
0001
0100
1000
,
0010
0001
0100
0001
0110
1000
0010
1000
0010
0101
0010
0001
1010
0001
0100
0010
,
1000
0001
1000
0100
1001
0010
0100
0010
1000
0001
1000
0010
0101
1000
0001
0100
,
0010
0000
1010
0000
1100
0000
1100
0000
0100
0000
0012
0000
1000
0000
0103
0001
,
1000
0001
1000
0010
0011
0100
0001
0010
1000
0100
0010
0001
1100
0010
0100
0001
,
0100
0010
1000
0001
1100
0010
0001
1000
0001
0100
0001
0010
1001
0100
0001
0100
,
1000
0010
1000
0001
1100
0001
0010
0001
0010
1000
0001
1000
0110
0001
1000
0100
,
0010
0000
0101
0000
0011
0000
1100
0000
0100
0000
0021
0000
0001
0000
0031
0100
,
1000
0010
0100
0001
0110
1000
0010
0001
1000
0010
0001
0100
0011
1000
0001
1000
,
0001
0100
0010
1000
0011
0100
0010
0001
1000
0100
1000
0001
1100
0001
0010
0001
,
2100
0001
0100
0001
0100
0001
0100
0001
0100
0001
0100
0001
3100
0000
0102
0000
,
0010
1000
0010
1000
0010
1000
0010
1000
0010
1000
0010
1003
0010
0100
0010
0001
,
1100
0000
0000
0000
;
